Skip to main content

Indecision Live at Tuckahoe Women's Club on 2009-05-09




Disc One/Set One (59:40.30):
01 Tuning > Hey Pocky Way
02 All I Need
03 Spinning
04 Humanoid Boogie
05 Ibb's Jazz >
06 Chicken in the Pot > Jam >
07 Weeds
08 High Steppin'

Disc Two/Set Two (72:18.58):
01 Intro/tuning
02 What Do You Do? >
03 Instant Armadillo Blues
04 She Ain't No Betty
05 Going Down the Road Feeling Bad*
06 And It Stoned Me*
07 Take It All In
08 Big Bright Light
Encore:
09 Sugaree

Notes:
* w/ Samantha Stollenwerck on vocals


Collection Indecision
Band/Artist Indecision
Venue Tuckahoe Women's Club
Location Richmond, Va

Source sbd > 744T
Lineage 744T>soundforge 7.0 (fades/levels)>cd wave>wavelab resampling/UV22)>flac
Taped by Craig Davis
Transferred by Craig Davis

Notes

"High Steppin' in the Farms"
Children, Incorporated Benefit


**16 bit source**

Source: sbd > 744T
Transfer: 744T>soundforge 7.0 (fades/levels)>cd wave>wavelab resampling/UV22)>flac
Taped & transferred by Craig Davis


SHNTOOL:
length expanded size cdr WAVE problems fmt ratio filename
9:36.14 101639372 B --- -- ---xx Indecision2009-05-09d1t01.flac
5:04.65 53778524 B --- -- ---xx Indecision2009-05-09d1t02.flac
6:51.64 72650972 B --- -- ---xx Indecision2009-05-09d1t03.flac
4:33.35 48239564 B --- -- ---xx Indecision2009-05-09d1t04.flac
8:52.33 93922460 B --- -- ---xx Indecision2009-05-09d1t05.flac
8:37.10 91222364 B --- -- ---xx Indecision2009-05-09d1t06.flac
6:47.63 71943020 B --- -- ---xx Indecision2009-05-09d1t07.flac
9:16.46 98186636 B --- -- ---xx Indecision2009-05-09d1t08.flac
1:13.51 12997196 B --- -- ---xx Indecision2009-05-09d2t01.flac
9:38.50 102076844 B --- -- ---xx Indecision2009-05-09d2t02.flac
5:05.61 53945516 B --- -- ---xx Indecision2009-05-09d2t03.flac
6:27.42 68365628 B --- -- ---xx Indecision2009-05-09d2t04.flac
9:37.68 101942780 B --- -- ---xx Indecision2009-05-09d2t05.flac
8:15.60 87459164 B --- -- ---xx Indecision2009-05-09d2t06.flac
10:41.50 113190044 B --- -- ---xx Indecision2009-05-09d2t07.flac
9:23.64 99463772 B --- -- ---xx Indecision2009-05-09d2t08.flac
11:53.62 125919068 B --- -- ---xx Indecision2009-05-09d2t09.flac
131:59.13 1396942924 B 0.5537 (17 files)

Reviews

There are no reviews yet. Be the first one to write a review.
DOWNLOAD OPTIONS
In Collection
Indecision
In Collection
Live Music Archive
Uploaded by
morst
on 5/24/2009
Views
842
Favorites
2
PEOPLE ALSO FOUND
Indecision
by Indecision
286
2
0
Source: sbd > 744T
Indecision
by Indecision
763
1
1
( 1 reviews )
Source: SBD + Audience Matrix
Indecision
by Indecision
1,643
2
0
Source: Matrix: B&K4022(ortf)>Sonosax(fob/dfc)[35%] + sbd[65%]>744T
Indecision
by Indecision
5,181
2
1
( 1 reviews )
Source: SBD > cassette masters > DAT master > stand-alone CDR masters
Indecision
by Indecision
1,848
1
2
( 2 reviews )
Source: Peluso CEMC-6/CK4(XY 90ยบ) > E.A.A. PSP-2 > Oade ACM Tascam HD-P2 @ 24/96
Indecision
by Indecision
541
2
0
Source: Matrix: B&K4011 (on stage)>V2 + sbd > Onyx-1220 > 744T(4 channel line in)(24/48)
Indecision
by Indecision
173
2
0
Source: Matrix: B&K4022(ortf) > Sonosax[35%] + sbd[65%] > 744T
Indecision
by Indecision
2,946
1
2
( 2 reviews )
Source: SBD > cassette (masters) > DAT (master) > CDR (masters)
Indecision
by Indecision
842
2
0
Source: sbd > 744T
Indecision
by Indecision
1,746
2
0
Source: SBD > DAT(masters) @ 16/48